This project has moved and is read-only. For the latest updates, please go here.

2.4.2 BETA - Multichannel Audio

Jan 8, 2015 at 7:07 PM
Hello - I've upgraded to the 2.4.2 BETA and am having trouble with MP4 Normal Conversion with Multitrack Audio.

I've selected multichannel audio in the conversion profile.

Attached is the log:
https://www.dropbox.com/s/golkadm625birh1/MasterChef_WFLDDT_2014_12_12_18_58_00.wtv-Convert%20to%20MP4-2015-01-08T04-33-30.4444950-06-00.log?dl=0

Please advise.
Jan 9, 2015 at 12:57 AM
Edited Jan 9, 2015 at 12:58 AM
That's because your source is stereo, it can't create new channels.
2015-01-08T04:33:32 MCEBuddy.AppWrapper.Base --> Stream #0:00x10: Audio: ac3, 48000 Hz, stereo, fltp, 448 kb/s
2015-01-08T04:33:32 MCEBuddy.AppWrapper.Base --> Stream #0:10x11: Audio: ac3, 48000 Hz, stereo, fltp, 192 kb/s
If in doubt, while the conversion in taking place, right click on the file in the queue and select info and see the details.
Marked as answer by rboy1 on 1/8/2015 at 4:57 PM